#TITLE:Pluto Relinquish;
#SUBTITLE:;
#ARTIST:2MB;
#TITLETRANSLIT:;
#SUBTITLETRANSLIT:;
#ARTISTTRANSLIT:;
#CREDIT:;
#BANNER:Pluto Relinquish.png;
#BACKGROUND:Pluto Relinquish-bg.png;
#LYRICSPATH:;
#CDTITLE:./CDTITLES/Dance Dance Revolution SuperNOVA 2.png;
#MUSIC:Pluto Relinquish.mp3;
#OFFSET:0.533;
#SAMPLESTART:0.020;
#SAMPLELENGTH:15.000;
#SELECTABLE:YES;
#DISPLAYBPM:50.000:220.000;
#BPMS:0.000=400.000,4.000=100.000,11.000=800.000,19.000=400.000,79.000=800.000,87.000=400.000,151.000=100.000,167.000=200.000,231.000=100.000,246.000=800.000,254.000=400.000,314.000=100.000,315.000=400.000,343.000=100.000,344.000=400.000,372.000=100.000,373.000=400.000,434.000=805.000;
#STOPS:;
#BGCHANGES:;
// cache tags:
#FIRSTBEAT:4.000;
#LASTBEAT:467.250;
#SONGFILENAME:Songs/Music V.I.P ^_^/Pluto Relinquish/Pluto Relinquish.sm;
#HASMUSIC:1;
#HASBANNER:1;
#MUSICLENGTH:97.781;
// end cache tags

//---------------dance-single - ----------------
#NOTES:
     dance-single:
     :
     Edit:
     1728059156:
     1.000,1.000,1.000,0.706,1.000,2287.000,329.000,69.000,0.000,92.000:
0000
0000
0000
0000
,
1020
0001
0100
1000
0001
0100
0100
1000
0100
0100
0001
1000
0100
1000
0001
0100
0001
1000
0100
0100
0001
0100
1000
0100
0130
0001
0010
0100
0001
0010
0100
1000
,
0021
0100
1000
0001
0100
0001
0100
0001
0100
1000
0100
0100
0031
0100
0010
1000
0100
0010
0001
0010
0100
0001
1000
0000
2002
0000
0000
0000
0000
0000
0000
0000
,
0000
0000
0000
0000
,
0000
0000
3003
0000
0000
0000
0210
0001
,
0010
0001
1000
0001
1000
0010
1300
0001
,
0010
0100
1000
0001
0011
0100
0001
0010
,
1100
0010
0100
1000
0001
0010
1000
0001
,
0100
0010
0010
1000
0001
0100
0010
0001
,
1000
0100
0001
1000
0010
0100
0100
0001
,
1000
0000
0100
0000
0010
0000
1000
0000
0001
1000
0010
0001
1000
0000
0001
0000
,
0100
1000
0010
0100
0001
0010
1001
0100
,
0010
0000
1000
0000
1000
0000
0001
1000
0010
0001
0100
0010
1000
0000
0100
0000
,
0010
1000
0001
0010
0100
0001
0100
0010
,
1000
0001
0100
0010
1010
0100
0001
0010
,
0101
0010
0100
1000
1000
0010
0001
0100
,
0001
0000
1000
0000
0110
0000
0001
0000
0010
0000
0100
0000
0001
0010
1000
0001
,
0100
1000
0010
0100
0001
0000
0010
0000
1000
0000
0100
0000
1100
0000
0001
0000
,
0010
0000
0000
0000
1000
0000
0000
0000
0011
0000
0000
0000
0100
0000
0000
0000
0010
0000
0000
0000
0100
0010
0100
0001
1000
0000
0000
0000
0010
0000
0000
0000
,
0010
1000
0100
0010
0001
0100
2002
0000
,
0000
0000
0000
0000
,
0000
0000
0000
0000
3003
1001
0110
0001
,
1000
0100
0010
0100
1001
0010
1001
0100
,
0001
0010
1000
0100
0011
0001
1000
0010
,
1100
0010
0100
0001
1001
0110
1001
0110
,
0011
1100
0010
1100
0001
0011
0100
0010
,
1000
0001
0100
1000
0010
0100
1000
0010
,
0001
0000
0000
0000
0000
0000
0000
0000
0100
0000
0000
0000
0000
0000
0000
0000
0010
0000
0000
0000
0000
0000
0000
0000
0001
0000
0000
0000
0000
0000
0000
0000
0100
0010
0100
0001
0100
0010
0100
0001
1000
0100
0001
1000
0100
0010
0100
0001
0010
0000
0000
0000
0000
0000
0000
0000
0100
0000
0000
0000
0000
0000
0000
0000
,
1000
0001
0100
0010
0001
1000
0100
0010
,
1000
0000
0000
0000
0000
0000
0000
0000
0100
0000
0000
0000
0000
0000
0000
0000
0010
0001
0010
1000
0010
0001
0100
0010
0100
1000
0001
0010
0100
0010
0100
0010
0001
0010
0100
1000
0100
0010
0001
0010
1000
0100
0010
0001
0100
0010
1000
0100
0010
0000
0000
0000
0000
0000
0000
0000
0100
0000
0000
0000
0000
0000
0000
0000
,
0001
0100
0010
0001
1000
0010
0100
1000
,
0010
0001
1000
0010
0010
1010
0001
0101
,
0100
1100
0010
0001
1000
0010
0100
1000
,
0010
0000
0000
0000
0000
0000
0100
0000
0000
0000
0000
0000
0001
0000
0000
0000
0000
0000
0010
0000
0000
0000
0000
0000
1000
0000
0000
0000
0000
0000
0100
0000
0000
0000
0000
0000
0010
0010
1000
0100
0010
0100
0010
0001
0001
0100
0010
0001
,
1000
0100
0010
0001
0010
1000
0001
0100
0010
1000
0010
0100
0100
0001
0010
0100
1000
0100
0010
0100
1000
0010
0001
0010
0100
0010
0001
1000
0100
0010
0100
0001
1000
0100
0010
0001
0010
1000
0100
0010
0001
0100
0010
0100
1000
0010
0100
0001
,
0010
1000
0001
0100
0010
0001
0100
1000
0001
0100
0010
0100
0100
1000
0001
0100
0010
0100
0001
0010
0001
0100
1000
0001
0100
0010
1000
0100
0010
0001
0010
0100
0001
0100
0010
0100
1000
0001
0010
0001
1000
0100
0010
0001
0010
1000
0100
0010
,
0001
0100
0010
1000
0100
0010
1000
0100
1000
0010
0001
0100
0001
0001
0001
0001
0001
0001
0001
0001
0100
0010
0010
0010
0010
0010
0010
0010
1000
0100
0100
0100
0100
0100
0100
0100
0010
0001
1000
0100
0010
1000
0001
0010
0100
1000
0001
0100
,
0010
0000
0000
0000
1000
0000
0000
0000
0100
0000
0000
0000
0010
0000
0000
0000
0001
0000
0000
0000
0010
0000
0000
0000
0001
0000
0000
0000
1000
0000
0000
0000
0001
0000
0000
0000
0100
0000
0000
0000
0010
0000
0000
0000
0001
0000
0000
0000
0010
0000
0000
0000
0100
0000
0000
0000
0001
0000
0000
0000
0010
0000
0000
0000
1000
0000
0000
0000
0001
0000
0000
0000
0100
0000
0000
0000
0010
0000
0000
0000
0100
0000
0000
0000
0001
0000
0000
0000
0010
0000
0000
0000
0100
0000
0000
0000
0001
0000
0000
0000
0010
0000
0000
0000
0100
0000
0000
0000
0001
0000
0000
0000
1100
0000
0000
0000
0010
0000
0000
0000
0100
0000
0000
0000
0010
0000
0000
0000
1000
0000
0000
0000
0001
0000
0000
0000
0100
0000
0000
0000
0010
0000
0000
0000
0001
0000
0000
0000
0000
0000
0010
0000
0000
0000
0000
0000
0100
0000
0000
0000
0000
0000
0100
0000
0000
0000
0000
0000
0001
0000
0000
0000
0000
0000
0010
0000
0000
0000
0000
0000
0100
0000
0000
0000
0000
0000
0001
0000
0000
0000
0000
0000
,
1010
0100
0010
0100
1000
0100
0010
0001
0100
0010
1000
0010
0100
0001
0010
0100
0011
0100
0010
0001
1100
0001
0010
0100
0010
0100
1000
0100
0010
0001
0010
1000
,
0101
0010
0100
1000
0100
0010
0001
0010
0010
1000
0001
0100
0010
0001
0010
0100
1100
0010
0100
0010
0011
0100
0010
0001
0010
0100
0100
1000
1000
0010
0010
1000
,
1000
0001
0001
0010
0100
1000
0100
0010
0010
0001
0100
0010
0001
0100
1000
0100
0010
0100
1000
0001
0100
0010
0100
1000
0010
0100
0001
0010
1000
0100
0010
0100
,
1000
0001
0100
0100
0010
0010
1000
0100
0001
0010
1000
0001
0100
0010
0001
1000
0100
0001
1000
0100
0010
1000
0001
0100
0010
0000
0100
0000
0001
0000
0010
0000
,
1000
0001
0100
0001
1000
0100
0010
0001
1000
0100
0001
0010
0100
1000
0010
0001
,
0100
0001
1000
0001
0101
0010
0100
0010
1100
0010
0100
0010
0001
0010
0010
0010
,
0100
0010
1000
0010
0101
0010
0010
0010
1100
0010
0010
0010
1001
0010
0010
0100
,
0012
0010
0010
2013
0010
0010
3010
0100
0012
0010
0010
0013
1001
0010
1000
0010
,
0001
0010
0100
0010
0001
0010
0010
0010
0001
0010
1000
0010
0010
0010
0010
0010
,
0110
0010
0011
0010
1110
0010
0010
0010
0111
0010
0010
0010
1010
0010
0010
0010
,
0110
0010
0011
0010
1110
0010
0010
0010
0111
0010
0010
0010
1011
0010
0010
0010
,
2010
0010
0010
3012
0110
0010
0013
0010
2010
0010
0010
3010
1011
0010
0110
0010
,
0011
0010
0010
0010
0011
0010
0110
0010
0011
0010
1010
0010
0010
0010
0010
0010
,
0110
0010
0011
0010
0110
0010
0010
0010
1011
0010
0010
0010
1010
0010
0010
0010
,
1010
0010
0011
0010
0110
0010
0010
0010
1011
0010
0010
0010
0110
0010
0010
2010
,
0010
0010
3010
0012
0110
0010
0013
2010
0010
0010
3010
0010
1011
0010
0010
0010
,
0110
0010
0011
0010
0110
0010
1010
0010
0110
0010
0010
0010
0010
0010
0011
0010
,
0010
0010
0110
0010
0011
0010
0010
0010
0110
0010
0010
0010
1110
0010
0011
0010
,
1010
0010
0110
0010
0010
0010
0011
0010
1010
0010
0011
0010
0111
0010
0010
0010
,
1010
0000
0010
0000
0110
0000
0010
0000
1110
0000
0010
0000
0010
0000
0010
0000
0011
0000
0010
0000
1010
0000
0010
0000
1011
0100
0100
0100
0100
0100
0100
0100
,
0100
0000
0100
0000
0100
0000
0100
0000
0100
0000
0100
0000
0111
0000
0100
0000
0100
0000
0100
0000
1110
0000
0100
0000
0100
0000
0100
0000
0100
0000
0100
0000
0100
0000
0100
0000
0100
0000
0100
0000
1101
0000
0100
0000
0100
0000
0100
0000
0100
0010
0101
0010
0100
0100
1100
0010
0100
0010
0101
0010
0110
0100
0100
0100
,
1000
0000
0010
0000
0001
0000
0010
0000
0100
0000
1000
0000
0100
0000
0010
0000
0001
0000
0010
0000
1000
0000
0100
0000
0100
0000
0010
0000
0010
0000
0001
0000
0001
0000
0010
0000
0100
0000
0010
0000
0001
0000
0001
0010
1000
0010
0110
0010
0001
0000
0010
0000
0100
0000
1000
0000
0100
0000
0010
0000
0100
0000
0001
0000
,
0100
0001
0010
0100
0001
0010
1010
0100
0010
0001
0011
0010
0100
1000
0100
0100
0100
0010
0001
0010
1001
0010
0001
0010
0110
0010
0001
0010
0100
1000
0100
1000
,
0100
1000
0100
0010
0001
0010
0100
0010
1000
0100
0010
0001
0001
0010
0100
0001
0110
0000
0000
0000
0000
0000
0000
0000
0000
0000
0000
0000
0000
0000
0000
0000
,
0000
0000
0000
0000
,
0000
0000
0000
0000
0000
0000
0000
0000
0001
0010
0100
0010
0001
0010
0100
0010
,
0100
0010
1000
0001
0100
0010
1000
0001
1100
0010
0100
0001
0010
0100
1000
0010
,
0100
0001
0010
0100
0010
2100
3001
0100
0011
0001
1000
0201
0320
0231
2301
3000
,
0110
0102
0023
0031
0200
0302
2003
3002
1103
0010
0100
0001
1000
0010
0100
0001
,
1100
0010
0100
0010
0001
0100
1000
0001
0101
0010
2000
3001
0100
0001
0010
0100
,
1000
0010
0001
0100
0100
1000
0001
0010
0101
0100
0010
0001
0110
0100
0001
0010
,
1100
0010
0001
0010
0100
0010
0001
0010
0101
1000
0010
0100
0101
0001
0010
0100
,
1001
0010
0100
1000
0101
0010
0100
0001
1001
0010
0100
0010
0011
1000
0001
0100
,
1010
1000
0001
0100
0010
1000
0001
0100
0011
1000
0001
0100
1010
0100
0001
0010
,
0100
0010
0001
0100
0001
0010
0100
1000
0100
0010
0001
0010
0010
0100
0010
1000
,
0001
0010
0100
0001
1000
0010
0100
0010
0010
0001
0010
0100
0100
0010
0100
1000
,
0001
0000
0010
0000
0100
0000
0001
0000
0010
0000
0001
0000
0010
0000
0100
0000
0100
0010
0100
1000
1000
0000
0100
0000
0010
0000
1000
0000
0001
0010
0100
0010
,
0010
0000
0001
0000
0010
0000
0100
0000
0100
0010
0100
0010
1000
0000
0100
0000
0010
0000
0001
0000
0010
0000
0100
0000
0001
0000
0010
0000
0001
0000
0010
0000
,
0010
0100
0001
0010
1000
0100
0001
0100
0010
0001
0010
1000
0100
0010
0100
1000
,
0001
0010
1000
0001
0100
0010
0100
0010
1000
0001
0010
1000
0100
0010
0100
0010
,
0001
0000
0000
0000
0000
0000
0000
0000
0000
0000
0000
0000
0010
0000
0000
0000
0000
0000
0000
0000
0000
0000
0000
0000
0100
0000
0000
0000
0000
0000
0000
0000
0000
0000
0000
0000
1000
0000
0000
0000
0000
0000
0000
0000
0000
0000
0000
0000
0010
0000
0000
0000
0000
0000
0000
0000
0000
0000
0000
0000
0010
0000
0000
0000
0000
0000
0000
0000
0000
0000
0000
0000
0100
0000
0000
0000
0000
0000
0000
0000
0000
0000
0000
0000
0001
0000
0000
0000
0000
0000
0000
0000
0000
0000
0000
0000
1100
0000
0000
1010
1000
0000
1100
0000
1000
1001
0000
0000
1010
0000
0000
1001
1000
0000
1000
0000
1000
1000
0000
0000
1010
0000
0000
1000
1000
0000
1000
0000
1000
1000
0000
0000
1000
0000
0000
1000
1000
0000
1000
0000
1000
1000
0000
0000
1001
0000
0000
0000
0000
0000
0000
0000
0000
0000
0000
0000
0010
0000
0000
0000
0000
0000
0000
0000
0000
0000
0000
0000
1000
0000
0000
0000
0000
0000
0000
0000
0000
0000
0000
0000
0001
0000
0000
0000
0000
0000
0000
0000
0000
0000
0000
0000
,
0100
0010
0100
0001
0010
0100
0010
0100
1000
0010
0001
0100
0100
1000
0010
0100
,
0010
0001
0010
0100
0001
0100
0010
0100
1000
0010
0100
0001
0010
1000
0010
0100
,
0100
0010
0100
0010
0001
0010
0100
0010
1000
0001
0010
0100
0100
0100
0010
0010
,
0010
0010
0001
0001
1001
1000
1000
1000
1010
0010
0110
0100
0101
0001
0001
0001
,
1001
1000
1000
1000
1100
0100
0100
0100
0110
0010
0010
0010
0011
0001
0001
0001
,
1001
1000
1000
1000
1010
0010
0010
0010
0011
0001
0001
0001
0011
0010
0010
0010
,
1010
0000
0000
0000
0000
0000
0000
0000
0000
0000
0000
0000
1000
0000
0000
0000
0000
0000
0000
0000
0000
0000
0000
0000
1000
0000
0000
0000
0000
0000
0000
0000
0000
0000
0000
0000
1000
0000
0000
0000
0000
0000
0000
0000
0000
0000
0000
0000
1100
0000
0000
0000
0000
0000
0000
0000
0000
0000
0000
0000
0100
0000
0000
0000
0000
0000
0000
0000
0000
0000
0000
0000
0100
0000
0000
0000
0000
0000
0000
0000
0000
0000
0000
0000
0100
0000
0000
0000
0000
0000
0000
0000
0000
0000
0000
0000
0101
0000
0000
0000
0000
0000
0000
0000
0000
0000
0000
0000
0001
0000
0000
0000
0000
0000
0000
0000
0000
0000
0000
0000
0001
0000
0000
0000
0000
0000
0000
0000
0000
0000
0000
0000
0001
0000
0000
0000
0000
0000
0000
0000
0000
0000
0000
0000
0101
0000
0000
0100
0100
0000
0100
0000
0100
0100
0000
0000
0100
0000
0000
0100
0100
0000
0100
0000
0100
0100
0000
0000
0110
0000
0000
0100
0100
0000
0100
0000
0100
0000
0000
0000
0100
0000
0000
0100
0100
0000
0100
0000
0100
0100
0000
0000
,
1100
0100
0010
0001
0100
0010
0100
1000
0010
0001
0010
0100
1000
0100
0010
0001
,
0010
0100
1000
0100
0001
0010
0100
0010
0100
0001
0010
0100
0010
0001
0010
0100
,
1000
0010
0001
0100
0001
0010
0001
0100
0010
0010
0100
0001
0100
0010
0100
0010
,
1000
0100
0010
0010
0001
0000
0000
0000
0010
0000
0000
0000
0100
0000
0000
0000
1000
0000
0000
0000
0010
0000
0000
0000
0100
0001
0010
1000
0010
0000
0000
0000
0100
0000
0000
0000
0010
0000
0000
0000
0001
0000
0000
0000
0010
0000
0000
0000
1000
0100
0010
0100
0001
0000
0000
0000
0100
0000
0000
0000
0010
0000
0000
0000
,
0010
0001
0100
0010
0001
0010
0100
1000
0100
0010
0001
0010
0010
0100
0010
0001
,
1000
0010
0100
0010
0001
0010
0100
0001
0100
0010
0001
0010
0010
0100
1000
0001
,
1000
0100
0010
0100
0100
0010
0100
0001
0010
0010
1000
0100
0001
0010
0100
1000
,
1100
0000
0000
0010
0010
0000
0010
0000
0010
0010
0000
0000
0010
0000
0000
0010
0010
0000
0010
0000
0010
0010
0000
0000
0111
0000
0000
0010
0010
0000
0010
0000
0010
0010
0000
0000
0010
0000
0000
0010
0010
0000
0010
0000
0010
0010
0000
0000
1010
0000
0000
0100
0000
0000
0001
0000
0000
0100
0000
0000
0010
0000
0000
1000
0000
0000
0001
0000
0000
0000
0000
0000
0101
0000
0000
0010
0000
0000
1000
0000
0000
0001
0000
0000
0100
0000
0000
0010
0000
0000
1000
0000
0000
0001
0000
0000
0101
0000
0000
0010
0000
0000
0100
0000
0000
0001
0000
0000
0010
0000
0000
2001
0000
0000
3000
0000
0000
0010
0000
0000
0100
0000
0000
0001
0000
0000
0010
0000
0000
0100
0000
0000
0001
0000
0000
0100
0000
0000
0010
0000
0000
1000
0000
0000
1001
0000
0000
0100
0000
0000
0010
0000
0000
0100
0000
0000
0001
0000
0000
0010
0000
0000
0100
0000
0000
1000
0000
0000
0101
0000
0000
0010
0000
0000
0100
0000
0000
0010
0000
0000
1000
0000
0000
0001
0000
0000
0100
0000
0000
0010
0000
0000
,
0001
0100
0010
0001
1000
0001
0010
0001
0110
0100
0001
1000
0001
0100
0010
1000
0011
0100
0010
0100
0001
0010
0100
0001
1100
0010
1000
0001
0010
0001
0100
1000
0110
0100
0001
0010
1000
0001
0100
0010
0101
0010
0001
0010
0100
1000
0100
0010
0101
0010
0100
1000
0001
0100
0010
1000
0011
0100
0010
0100
0010
0001
0010
0100
,
0101
0010
0100
0001
0010
0100
0001
0100
1010
0000
0000
0000
0000
0000
0000
0000
0000
0000
0000
0000
0000
0000
0000
0000
0000
0000
0000
0000
0000
0000
0000
0000
0000
0000
0000
0000
0000
0000
0000
0000
0000
0000
0000
0000
0000
0000
0000
0000
0000
0000
0000
0000
0000
0000
0000
0000
0000
0000
0000
0000
0000
0000
0000
0000
,
0000
0000
0000
0000
0000
0000
0000
0000
0000
0000
0000
0000
0000
0000
0000
0000
0000
0000
0000
0000
0000
0000
0000
0000
0000
0000
0000
0000
0000
0000
0000
0000
0000
0000
0000
0000
0000
0000
0000
0000
0000
0000
0000
0000
0000
0000
0000
0000
0001
0100
0010
1000
0001
0100
0010
0100
1001
0010
0100
1000
0001
0100
0010
0100
,
1001
0010
0100
0001
0010
0001
0100
0010
1100
0001
0010
1000
0100
0010
1000
0010
0101
0010
0100
0001
0100
0001
1000
0100
0110
0001
0010
0100
0010
0001
0100
0010
1100
0001
0010
0100
1000
0001
0100
0010
1010
0001
0100
0010
1000
0010
0100
0010
1001
0010
0100
0001
0010
0001
0100
0001
0010
0100
0001
0010
0001
0010
0010
1000
,
0101
0100
0010
0100
0010
0001
0100
0010
1100
0001
0100
0010
1000
0001
0100
0010
0010
0100
0010
0001
0100
0010
1000
0001
0101
0010
1000
0001
0100
0010
1000
0001
0110
0010
0001
0010
0100
1000
0001
0010
0100
1000
0001
0010
0100
1000
0001
0010
0110
1000
0001
0010
0100
1000
0001
0010
1100
1000
0001
0010
0100
1000
0001
0010
,
0101
1000
0001
0010
0100
1000
0001
0010
0110
1000
0001
0010
0100
1000
0001
0010
0100
0000
0000
0000
0000
0000
0000
0000
0000
0000
0000
0000
0000
0000
0000
0000
0000
0000
0000
0000
0000
0000
0000
0000
0000
0000
0000
0000
0000
0000
0000
0000
0000
0000
0000
0000
0000
0000
0000
0000
0000
0000
0000
0000
0000
0000
0000
0000
,
0000
0000
0000
0000
0000
0000
0000
0000
0000
0000
0000
0000
0000
0000
0000
0000
0000
0000
0000
0000
0000
0000
0000
0000
0000
0000
0000
0000
0000
0000
0000
0000
0000
0000
0000
0000
0000
0000
0000
0000
0000
0000
0000
0000
0000
0000
0000
0000
0100
0010
0100
0001
1000
0100
0010
0100
0011
1000
0001
0100
0010
0100
0001
0010
,
0101
0010
0100
0010
0100
0001
0010
0100
1001
0010
0100
0001
1000
0010
0100
0001
0110
0001
0100
0010
1000
0001
0100
0010
0110
0001
1000
0001
0100
0010
1000
0001
0011
0100
0001
0010
0001
0010
0001
0100
0101
0010
0001
1000
0001
0100
0010
0001
0010
0100
0001
0010
0100
0001
0100
0010
1100
0001
0010
0100
0001
0010
1000
0100
,
0101
0010
1000
0110
0100
0001
0010
0100
0011
1000
0001
0100
0010
0100
0001
1000
0101
0100
0010
1000
0001
0100
0001
0010
1100
1000
0001
0100
0010
1000
0001
0100
0011
1000
0001
0100
0010
1000
0001
0100
0010
1000
0001
0010
0100
0001
1000
0010
0100
0010
1000
0001
0100
0010
1000
0001
0011
1000
0100
0010
0001
0010
0001
0010
,
0101
0010
0001
0010
0001
0010
0001
0010
1001
0010
0001
0010
0100
1000
0001
0010
0110
1000
0001
0010
0100
1000
0001
0010
0100
1000
0021
0030
0100
1000
0001
0010
0101
1000
0001
0010
0100
1000
0001
0010
0110
1000
0001
0010
0100
1000
0001
0010
1100
1000
0001
0010
0100
1000
0001
0010
2110
3002
0003
0010
0100
1000
0021
0030
,
0101
1000
0001
0010
2100
3000
0021
0230
1300
1000
0001
0210
2300
3000
0001
0010
2110
3000
0001
0210
0300
1000
0001
0010
0100
1000
0100
0010
0100
0010
1000
0001
0011
0100
0001
1000
0010
0100
0001
1000
1001
0100
0010
1000
0001
0100
0010
1000
0011
0010
0100
0001
0010
1000
0100
0010
0101
0010
1000
0001
1000
0001
0100
0010
,
1010
0001
0100
0010
1000
0001
0100
0001
0110
0100
1000
0001
0100
0010
1001
0010
0101
0010
1000
0001
0100
0010
0100
0001
1010
0200
0301
0010
0100
1000
0001
0010
1100
0001
0021
0230
2300
3200
0320
0030
1102
0023
0230
1300
2020
3230
0320
0032
0023
0230
2300
3020
0032
0023
0230
0302
0123
0030
0200
2300
3200
0300
0012
0003
,
0110
0010
1000
0001
0100
0010
0100
1010
1000
1001
1000
1000
1000
1000
1000
1000
1001
1001
1001
1001
1001
1001
1001
1001
1001
1001
1001
1001
1001
1001
1001
1001
1001
1011
1011
1011
1011
1011
1011
1011
1011
1011
1011
1011
1011
1011
1011
1011
1011
1111
1111
1111
1111
1111
1111
1111
1111
1111
1111
1111
1111
1111
1111
1111
,
1111
1111
1111
1111
1111
1111
1111
1111
1111
1111
1111
1111
1111
1111
1111
1111
1111
1111
1111
1111
1111
1111
1111
1111
1111
1111
1111
1111
1111
1111
1111
1111
2002
0000
0000
0000
0000
0000
0000
0000
0000
0000
0000
0000
0000
0000
0000
0000
0000
0000
0000
0000
0000
0000
0000
0000
0000
0000
0000
0000
0000
0000
0000
0000
,
0000
0000
0000
0000
,
0000
0000
0000
0000
,
0000
0000
0000
0000
,
0000
0000
0000
0000
,
0000
0000
0000
0000
,
0000
0000
0000
0000
,
0000
0000
0000
0000
,
0000
0000
0000
0000
,
0000
0000
0000
0000
0000
0000
0000
0000
0000
0000
0000
0000
0000
3003
0000
0000
;
